Guitar Lab Smooth Jazz Power Chords

Download Now

Guitar Lab Smooth Jazz Power Chords
Guitar Lab: Smooth Jazz Power Chords
WEBRip | English | MP4 | 864 x 486 | AVC ~966 kbps | 29.970 fps
AAC 128 Kbps 48.0 KHz | 2 channel | 01:27:00 | 790.5 MB
Genre: eLearning Video / Guitar lesson

Octaves are a staple of a jazz guitarist's vocabulary. They're a great way of fattening up a single note line without contributing to harmonic implications. This course takes octaves a step further by including an interior voice which will produce a power chord in root position or an inverted power chord. These will be applied to a major 7 arpeggio in the key of G in various layouts on the fingerboard.


We'll then extend the arpeggio to a major 9 to enhance the sonority. You'll learn how to utilize the 9 as a connector between the root in the 3rd, the 6 as a connector between the 5 and 7, and the root as a connector between the 7 and the 9. Finally, we'll learn how to utilize all of this G major 7(9) information over an E bass thus generating an E minor 11 harmony.


General
Complete name : bcsjpc-010.mp4
Format : MPEG-4
Format profile : Base Media / Version 2
Codec ID : mp42 (mp42/isom)
File size : 59.4 MiB
Duration : 7 min 33 s
Overall bit rate : 1 098 kb/s
Encoded date : UTC 2015-08-08 02:04:38
Tagged date : UTC 2015-08-08 02:04:38

Video
ID : 2
Format : AVC
Format/Info : Advanced Video Codec
Format profile :
Format settings : CABAC / 5 Ref Frames
Format settings, CABAC : Yes
Format settings, RefFrames : 5 frames
Format settings, GOP : M=3, N=24
Codec ID : avc1
Codec ID/Info : Advanced Video Coding
Duration : 7 min 33 s
Source duration : 7 min 33 s
Bit rate : 966 kb/s
Width : 864 pixels
Height : 486 pixels
Display aspect ratio : 16:9
Frame rate mode : Constant
Frame rate : 29.970 (30000/1001) FPS
Standard : NTSC
Color space : YUV
Chroma subsampling : 4:2:0
Bit depth : 8 bits
Scan type : Progressive
Bits/(Pixel*Frame) : 0.077
Stream size : 52.3 MiB (88%)
Source stream size : 52.3 MiB (88%)
Language : English
Encoded date : UTC 2015-08-08 02:04:38
Tagged date : UTC 2015-08-08 02:04:38
Color range : Limited

Audio
ID : 1
Format : AAC
Format/Info : Advanced Audio Codec
Format profile : LC
Codec ID : mp4a-40-2
Duration : 7 min 33 s
Bit rate mode : Constant
Bit rate : 128 kb/s
Channel(s) : 2 channels
Channel positions : Front: L R
Sampling rate : 48.0 kHz
Frame rate : 46.875 FPS (1024 SPF)
Compression mode : Lossy
Stream size : 6.93 MiB (12%)
Language : English
Encoded date : UTC 2015-08-08 02:04:38
Tagged date : UTC 2015-08-08 02:04:38

Guitar Lab Smooth Jazz Power Chords
DOWNLOAD
(Buy premium account for maximum speed and resuming ability)






Direct Download

Tags: Guitar, Smooth, Chords

Guitar Lab Smooth Jazz Power Chords Download via Hotfile Rapidshare Fileserve Megaupload & FileSonic, Guitar Lab Smooth Jazz Power Chords free torrent downloads included crack, serial, keygen.


Attention!Information

Members of Guest cannot leave comments.

Sitemap